Batwoman S02E05 ettv proper WandaVision S01E07 superman evo The Bachelor S25E08 Clarice S01E02 ddr yts The Good Doctor S04E10 snowpiercer s02e05 Boss Level 2021 wandavision Resident Alien s01e05 tamil ita ethd Fear of Rain 2021 The Marksman 2021 the equalizer s01e03 The Neighborhood S03E10 hindi wwe rq.mp4 monster hunter pogaru Red Dot 2021 I Care a Lot 2020 The Rookie S03E06 superman and lois News of the World 2020 All American S03E06 Silk Road 2021 9-1-1 S04E06 9-1-1 superman & lois when calls the heart s08e01 Judas and the Black Messiah 2021 malayalam 2021 chakra American Gods S03E06 The Walking Dead S10E17 The Walking Dead monster hunter 2020 This Is Us S05E09 Malayalam  Below Deck S08E17 Wonder Woman 1984 2020 Bull S05E09 XXX Men in Kilts A Roadtrip with Sam and Graham s01e02 drishyam 2 The Curse of Oak Island S08E15 Allen v. Farrow S01E01 All Rise S02E09 hindi 2021  family guy Superman and Lois S01E01 Resident Alien s01e04 Wrong Turn 2021 etmovies batwoman 9-1-1 Lone Star S02E06 Young Rock S01E02 snowpiercer Black Lightning S04E03 telugu 0 The Little Things 2021 etrg The Blacklist S08E07 Tom and Jerry 2021 
Warning! Use a VPN When Downloading Torrents!
Your IP Address is 3.239.192.241,. Location
Your Internet Provider can see when you download torrents! Hide your IP Address with a VPN
ETTV warns: You should use VPN to hide your torrenting. HIDE ME NOW
ETTV Recommended TV Shows
9-1-1.Lone.Star.S02E06.720p.WEB.h264-KOGi torrent
The.Bachelor.S25E08.720p.WEB.h264-KOGi torrent
Blackish.S07E11.720p.HDTV.x264-SYNCOPY torrent
Kenan.S01E02.720p.HDTV.x264-SYNCOPY torrent
Mixed-ish.S02E05.720p.HDTV.x264-SYNCOPY torrent
Superman.and.Lois.S01E01.REPACK.1080p.HDTV.x264-aFi torrent
This.Is.Us.S05E09.720p.HDTV.x264-SYNCOPY torrent
Young.Rock.S01E02.720p.HDTV.x264-SYNCOPY torrent

ETTV Recommended SD
Son.2021.HDRip.XviD.AC3-EVO torrent
We.The.Jury.2020.HDRip.XviD.AC3-EVO torrent
Promises.To.Keep.2020.HDRip.XviD.AC3-EVO torrent
Galentines.Day.Nightmare.2021.HDRip.XviD.AC3-EVO torrent

ETTV Recommended HD
Noah (2014) ITA AC3 5.1 WEBDL 1080p H264 - L@Z59.mkv torrent
Archive - Sci-Fi 2020 Eng Ita Multi-Subs 1080p [H264-mp4] torrent
Tombstone (1993) [Kurt Russell] 1080p H264 DolbyD 5.1 ūüíé nickarad torrent
Escape from New York (1981) [Kurt Russell] 1080p H264 DolbyD 5.1 ūüíé nickarad torrent

ETTV Recommended UHD
Police.2020.HDR.2160p.WEB.DDP5.1.HEVC-DDR.mkv torrent
The.Climb.2020.HDR.2160p.WEB.DDP5.1.HEVC-DDR.mkv torrent
2012.2009.Multi.UHD.BluRay.2160p.HDR.HEVC.TrueHD.Atmos.7.1-DDR.mkv torrent
Master Z Ip Man Legacy 2018 4K MULTI 2160p HDR WEB AC3 HEVC-DDR.mkv torrent
Money.Monster.2016.4K.MULTI.2160p.HDR.WEB.DTS-HDMA.5.1.HEVC-DDR.mkv torrent
Superbad.2007.Theatrical.Cut.4K.MULTI.2160p.HDR.WEB.AC3.HEVC-DDR.mkv torrent

ETTV Recommended Cam
Tom and Jerry (2021) English HDCAM x264 AAC By Full4Movies torrent
The World to Come (2021) New English HDCAM x264 AAC By Full4Movies torrent
Weekenders (2021) New English HDCAM x264 AAC By Full4Movies torrent
Detective Chinatown 3 (2021) 720p HDCAM [Hindi-Sub] x264 - 1XBET torrent

ETTV Recommended Foreign
The.Wolf.Witch.2020.1080p.WEB-DL.H264-Mkvking torrent
Il giocatore di scacchi-El jugador de ajedrez (2020) ITA-SPA Ac3 5.1 BDRip 1080p H264 [ArMor] torrent
True.and.False.Monkey.King.2020.CHINESE.1080p.WEB-DL.H264-Mkvking torrent
The Dark Tower (2017) 720p BluRay [Hindi (ORG DD2.0) & English] x264 AC3 ESub By Full4Movies torrent
The.Mad.Monk.2021.WEB-DL.1080p.H264-Mkvking torrent
The Broken Hearts Gallery 2020 x264 720p Esub BluRay English Hindi Telugu Tamil THE GOPI SAHI torrent

ETTV Recommended Music
[ambient, electronic] (2020) Nimh & Rapoon - Post-Folk Lore vol.1 [FLAC] [DarkAngie] torrent
Whitesnake - The BLUES Album (2020 Remix) (2021) [320 KBPS] torrent
Ariana Grande - Positions (Deluxe Explicit) (2021) [24 Bit Hi-Res] FLAC [PMEDIA] ‚≠źÔłŹ torrent
Alice Cooper - Detroit Stories (2021) [24 Bit Hi-Res] FLAC [PMEDIA] ‚≠źÔłŹ torrent
Bonnie Tyler - The Best Is yet to Come (2021) [24 Bit Hi-Res] FLAC [PMEDIA] ‚≠źÔłŹ torrent
Billboard Hot 100 Singles Chart (27-February-2021) Mp3 320kbps [PMEDIA] ‚≠źÔłŹ torrent


Download Torrent "Lupin III-La menzogna di Fujiko Mine (2019) ITA-JAP Ac3 5.1 BDRip 1080p H26..."

IMDB Details
Description:

N/A

Genre:

N/A

Download Torrent (Magnet)
Download Torrent (File)

Seeds: 74
Leechers: 38

Uploaded by:
ArMor


Category:
Anime > Movies


Details
Title:Lupin III-La menzogna di Fujiko Mine (2019) ITA-JAP Ac3 5.1 BDRip 1080p H26...
Description:








Titolo originale LUPIN THE IIIRD Ś≥įšłćšļĆŚ≠ź„ĀģŚėė
LUPIN THE IIIRD: Mine Fujiko no uso
Lingua originale giapponese
Paese di produzione Giappone
Anno 2019
Durata 58 min
Genere animazione
Regia Takeshi Koike
Sceneggiatura YŇęya Takahashi
Produttore YŇę Kiyozono
Casa di produzione TMS Entertainment
Musiche James Shimoji
Character design Takeshi Koike
Animatori Takeshi Koike



Kan'ichi Kurita: Arsenio Lupin III
Kiyoshi Kobayashi: Daisuke Jigen
Miyuki Sawashiro: Fujiko Mine
Mamoru Miyano: Bincam
Tomoe Hanba: Gene



Fujiko fa amicizia con un ragazzo il cui defunto padre ha nascosto un tesoro, ma un assassino è sulle tracce del ragazzo.



Fujiko befriends a young boy whose late father hid away a treasure, but a killer is on the boy's trail.

 










General
Unique ID                                : 245640991638345256882544406025854548597 (0xB8CCBBF05F1394269E2AF060A82C7A75)
Complete name                            : Lupin III-La menzogna di Fujiko Mine (2019) ITA-JAP Ac3 5.1 BDRip 1080p H264 [ArMor].mkv
Format                                   : Matroska
Format version                           : Version 4
File size                                : 2.27 GiB
Duration                                 : 57 min 36 s
Overall bit rate                         : 5 639 kb/s
Encoded date                             : UTC 2020-12-01 06:11:34
Writing application                      : mkvmerge v15.0.0 ('Duel with the Devil') 64-bit
Writing library                          : libebml v1.3.5 + libmatroska v1.4.5 / Lavf58.29.100

Video
ID                                       : 1
Format                                   : AVC
Format/Info                              : Advanced Video Codec
Format profile¬† ¬† ¬† ¬† ¬† ¬† ¬† ¬† ¬† ¬† ¬† ¬† ¬† ¬†: [email protected]
Format settings                          : CABAC / 4 Ref Frames
Format settings, CABAC                   : Yes
Format settings, Reference frames        : 4 frames
Codec ID                                 : V_MPEG4/ISO/AVC
Duration                                 : 57 min 36 s
Bit rate                                 : 5 000 kb/s
Width                                    : 1 920 pixels
Height                                   : 1 080 pixels
Display aspect ratio                     : 16:9
Frame rate mode                          : Constant
Frame rate                               : 23.976 (24000/1001) FPS
Color space                              : YUV
Chroma subsampling                       : 4:2:0
Bit depth                                : 8 bits
Scan type                                : Progressive
Bits/(Pixel*Frame)                       : 0.101
Stream size                              : 2.01 GiB (89%)
Writing library                          : x264 core 157 r2935 545de2f
Encoding settings                        : cabac=1 / ref=2 / deblock=1:0:0 / analyse=0x1:0x111 / me=hex / subme=6 / psy=1 / psy_rd=1.00:0.00 / mixed_ref=1 / me_range=16 / chroma_me=1 / trellis=1 / 8x8dct=0 / cqm=0 / deadzone=21,11 / fast_pskip=1 / chroma_qp_offset=-2 / threads=18 / lookahead_threads=3 / sliced_threads=0 / nr=0 / decimate=1 / interlaced=0 / bluray_compat=0 / constrained_intra=0 / bframes=3 / b_pyramid=2 / b_adapt=1 / b_bias=0 / direct=1 / weightb=1 / open_gop=0 / weightp=1 / keyint=240 / keyint_min=24 / scenecut=40 / intra_refresh=0 / rc_lookahead=30 / rc=abr / mbtree=1 / bitrate=5000 / ratetol=1.0 / qcomp=0.60 / qpmin=0 / qpmax=69 / qpstep=4 / vbv_maxrate=20000 / vbv_bufsize=25000 / nal_hrd=none / filler=0 / ip_ratio=1.40 / aq=1:1.00
Default                                  : Yes
Forced                                   : No
Color range                              : Limited
Color primaries                          : BT.709
Transfer characteristics                 : BT.709
Matrix coefficients                      : BT.709

Audio #1
ID                                       : 2
Format                                   : AC-3
Format/Info                              : Audio Coding 3
Commercial name                          : Dolby Digital
Codec ID                                 : A_AC3
Duration                                 : 57 min 36 s
Bit rate mode                            : Constant
Bit rate                                 : 448 kb/s
Channel(s)                               : 6 channels
Channel layout                           : L R C LFE Ls Rs
Sampling rate                            : 48.0 kHz
Frame rate                               : 31.250 FPS (1536 SPF)
Compression mode                         : Lossy
Stream size                              : 185 MiB (8%)
Title                                    : WEBDL EAC3
Language                                 : Italian
Service kind                             : Complete Main
Default                                  : Yes
Forced                                   : No

Audio #2
ID                                       : 3
Format                                   : AC-3
Format/Info                              : Audio Coding 3
Commercial name                          : Dolby Digital
Codec ID                                 : A_AC3
Duration                                 : 57 min 36 s
Bit rate mode                            : Constant
Bit rate                                 : 192 kb/s
Channel(s)                               : 2 channels
Channel layout                           : L R
Sampling rate                            : 48.0 kHz
Frame rate                               : 31.250 FPS (1536 SPF)
Compression mode                         : Lossy
Stream size                              : 79.1 MiB (3%)
Title                                    : Stereo
Language                                 : Japanese
Service kind                             : Complete Main
Default                                  : No
Forced                                   : No




Category:Anime > Movies
Lang:Italian  Italian
Total Size:2.27 GB
Info Hash:fa7a61e8aa74efd2aeff73575e752f0d0cee857f
Added By:ArMor
Date Added:02-12-2020 17:19:15

  

Files

File List: 
 File Size
Lupin III-La menzogna di Fujiko Mine (2019) ITA-JAP Ac3 5.1 BDRip 1080p H264 [ArMor].mkv2.27 GB
Lupin III.La.bugia.di.Fujiko.Mine.2019.ITA-JAP.Bluray.1080p_ita.srt51.97 kB
Lupin III.La.bugia.di.Fujiko.Mine.2019.ITA-JAP.Bluray.1080p_ita_forced.srt329.00 B
vvcbxsw1268u.jpg143.58 kB



Comments

There are currently no comments. Be the first one to write something !